<?xml version="1.0" standalone="no"?>
<!DOCTYPE svg PUBLIC "-//W3C//DTD SVG 1.1//EN" "http://www.w3.org/Graphics/SVG/1.1/DTD/svg11.dtd" >
<svg xmlns="http://www.w3.org/2000/svg">
<metadata></metadata>
<defs>
<font id="altamebold" horiz-adv-x="573" >
<font-face units-per-em="1024" ascent="819" descent="-205" />
<missing-glyph horiz-adv-x="266" />
<glyph horiz-adv-x="0" />
<glyph horiz-adv-x="0" />
<glyph unicode="&#xd;" horiz-adv-x="0" />
<glyph unicode=" "  horiz-adv-x="266" />
<glyph unicode="&#x09;" horiz-adv-x="266" />
<glyph unicode="&#xa0;" horiz-adv-x="266" />
<glyph unicode="!" horiz-adv-x="286" d="M81 221q-2 8 -8 34q-6 23 -6 45v325v176q33 1 132 6v-416q0 -53 5 -92q5 -38 12 -36q-1 -5 -4 -14q-9 -4 -40 -10q-20 -5 -59 -15q-8 -1 -32 -3zM107 4q-18 8 -26 19q-22 22 -22 49v1q0 8 5 25q6 28 45 43q14 7 35 7h1q19 0 37 -8q18 -7 26 -18q22 -22 22 -49v-1 q0 -27 -22 -49q-8 -11 -26 -19q-19 -7 -38 -7q-18 0 -37 7z" />
<glyph unicode="&#x22;" horiz-adv-x="343" d="M340 706q-4 -32 -27 -71v1q-23 -45 -67 -71q-43 -26 -99 -29v58q51 13 69 62q-26 9 -41 33q-5 -21 -23 -54v1q-23 -45 -67 -71q-43 -26 -100 -29v22v36q53 13 69 62q-22 8 -36 25q-13 17 -13 40q0 52 58 73h1q13 5 32 5q11 0 24 -3t21 -8q24 -15 33 -34q13 27 50 40h1 q15 5 33 5q11 0 24 -3t21 -8h1q19 -13 28 -28q9 -16 9 -37q0 -12 -1 -18v1z" />
<glyph unicode="#" horiz-adv-x="594" d="M459 407q-7 -31 -27 -123h95q6 -5 25 -18q-5 -23 -18 -78h-124q-10 -46 -40 -185h-116q10 52 39 185h-62q-10 -46 -40 -185h-117q10 46 40 185h-95q-6 5 -24 19q13 51 20 77h120q7 31 27 123h-95q-6 5 -25 18q4 20 18 80h124q10 46 40 183h116q-10 -46 -40 -183h63 q10 46 40 183h117q-10 -46 -40 -183h95q6 -5 24 -19q-8 -36 -20 -79h-120zM328 341q3 16 13 66h-62q-10 -42 -14 -65q-8 -38 -13 -58h62q3 14 14 57z" />
<glyph unicode="$" horiz-adv-x="516" d="M484 295q15 -39 16 -84q0 -102 -66 -160q-65 -58 -180 -59q-73 1 -131 22t-94 59q21 27 64 82q34 -32 74 -49t78 -17q58 0 96 35q16 14 25 34q8 21 8 44q-1 19 -7 38q-5 20 -13 29q-32 38 -142 77q-93 33 -132 78t-39 120q0 91 57 144q58 52 158 52q63 0 118 -20 q55 -21 89 -57q-22 -25 -67 -74q-31 31 -62 45q-30 14 -68 14q-44 0 -71 -28q-27 -29 -27 -76q0 -28 14 -45t34 -27q20 -9 76 -31q62 -24 96 -41q35 -18 56 -39q26 -27 40 -66zM205 819h102v-102h-102v102zM205 41h102v-102h-102v102z" />
<glyph unicode="%" horiz-adv-x="697" d="M574 324q35 -21 55 -59q20 -37 20 -83q0 -75 -41 -120q-42 -44 -112 -44q-71 0 -112 44t-41 120q0 28 8 55q-23 -51 -70 -151l-44 -96q-29 6 -116 23q49 105 195 419q-42 -45 -112 -45q-71 0 -112 44t-41 120q0 72 43 117q42 46 110 46q67 0 110 -46t43 -117 q0 -19 -3 -36q35 73 103 221q29 -4 116 -15q-51 -111 -203 -443q20 31 53 49t73 18q43 0 78 -21zM233 494q12 21 12 57q0 35 -11 55q-12 20 -31 20t-30 -20q-11 -19 -11 -55t12 -57q11 -21 30 -21q18 0 29 21zM525 124q12 21 12 58q0 35 -11 55q-12 20 -31 20t-30 -20 q-11 -19 -11 -55t12 -57q11 -21 30 -21q18 0 29 20z" />
<glyph unicode="&#x26;" horiz-adv-x="594" d="M563 5q-26 38 -105 153q7 15 28 62q11 23 41 103l-12 6q1 1 -12 7q-14 6 -25 12q-16 7 -48 23q-11 -39 -45 -124q-20 29 -61 88q-5 7 -21 30q33 30 37 34q1 0 1 1q35 37 53 76t18 76q-1 74 -42 115q-42 41 -124 41q-85 0 -123 -43q-38 -42 -38 -113q0 -41 12 -69 q12 -27 46 -78q8 -10 10 -12v0q0 1 -1 0q-54 -41 -84 -97q-30 -55 -30 -113q0 -90 56 -142t153 -52q106 1 155 67q5 -7 13 -19q9 -12 36 -47q28 4 112 15zM210 496q-13 25 -14 56q1 27 12 46q10 19 38 19t41 -14q13 -15 13 -51q0 -24 -15 -51q-16 -26 -43 -48q-15 16 -32 43 zM155 184v1q0 32 16 66q15 35 41 60q41 -59 121 -175q-29 -51 -82 -51q-12 0 -24 2q-72 14 -72 97z" />
<glyph unicode="'" horiz-adv-x="189" d="M97 537q37 24 63 68q25 43 26 81q0 36 -21 59q-20 23 -56 23t-59 -20q-23 -21 -23 -57q0 -46 44 -65q-17 -47 -68 -60v-15v-43q54 3 94 29z" />
<glyph unicode="(" horiz-adv-x="256" d="M143 369q0 210 146 431q-43 -3 -128 -8q-140 -214 -140 -422v-1q0 -229 142 -426q40 3 121 8q-130 182 -141 418z" />
<glyph unicode=")" horiz-adv-x="277" d="M-7 -53q81 -6 121 -8q142 197 142 426v1q0 208 -140 422q-43 2 -128 8q146 -221 146 -431q-11 -236 -141 -418z" />
<glyph unicode="*" horiz-adv-x="450" d="M224 468q9 -16 37 -63q9 -16 37 -62q27 19 107 77q-25 28 -101 112q37 8 149 32q-4 10 -14 41q-15 45 -27 77q-45 -20 -134 -60q3 38 13 150h-135q4 -37 15 -149q-34 15 -136 58q-10 -29 -39 -117q37 -8 149 -32q-25 -28 -100 -113q26 -19 106 -77q18 32 73 126z" />
<glyph unicode="+" horiz-adv-x="470" d="M276 88v143h123v101h-122v144h-112v-143h-123v-26v-76h122v-143h112z" />
<glyph unicode="," horiz-adv-x="267" d="M125 -103q38 24 63 68q26 43 26 81q0 36 -21 59q-20 23 -56 23t-59 -20q-23 -21 -23 -57q0 -46 44 -65q-17 -47 -68 -60v-58q54 3 94 29z" />
<glyph unicode="-" horiz-adv-x="376" d="M348 231v102h-317v-26v-76h317z" />
<glyph unicode="." horiz-adv-x="231" d="M172 16q-10 -10 -24 -15q-14 -6 -28 -6t-28 6q-14 5 -24 15t-16 24t-6 29q0 14 6 28t16 24t24 15q14 6 28 6t28 -6q14 -5 24 -15t16 -24q5 -14 5 -28q0 -15 -5 -29q-6 -14 -16 -24z" />
<glyph unicode="/" horiz-adv-x="356" d="M142 -8q-5 -3 -22 -12q-23 3 -92 13q45 198 182 794q6 -1 23 -4q45 -8 87 -13q-59 -259 -178 -778z" />
<glyph unicode="0" horiz-adv-x="523" d="M390 711q50 -39 73 -123q23 -83 23 -218v-4q0 -100 -13 -170q-14 -69 -42 -114q-27 -43 -69 -66q-41 -23 -91 -23h-13q-80 0 -129 38q-48 38 -70 119q-22 82 -23 216q1 138 23 222q23 84 72 123t130 39q80 0 129 -39zM328 601q-13 30 -29 43q-16 14 -40 15h-1 q-20 0 -35 -13t-28 -44q-25 -60 -27 -237q2 -165 24 -225q12 -31 28 -44q17 -13 43 -13h2q23 1 38 15q15 13 27 44q23 58 23 211v12q-5 178 -25 236z" />
<glyph unicode="1" horiz-adv-x="287" d="M98 570h-92v29v67q11 -4 25 -4q28 0 47 19q20 19 20 46q0 6 -2 16h133v-740h-131v567z" />
<glyph unicode="2" horiz-adv-x="502" d="M36 71l12 48q31 115 119 190v1q25 20 75 64q6 5 17 15q39 32 57 63q18 32 18 68q0 58 -22 89q-23 32 -64 32h-1q-43 1 -68 -17q-25 -17 -46 -60q-48 33 -67 45q-24 15 -24 17q0 5 -1 15q60 99 205 99h1q102 0 159 -58q58 -58 59 -162q0 -50 -21 -91q-22 -41 -54 -73 t-87 -77q-7 -6 -20 -17q-44 -35 -71 -76q-27 -42 -32 -81h286v-102h-429q0 17 -1 68z" />
<glyph unicode="3" horiz-adv-x="513" d="M95 16q-53 32 -89 97q35 19 106 58q20 -37 35 -55t32 -25q18 -7 47 -7q54 0 86 38q32 37 32 101q0 52 -10 73q-18 43 -64 61q-46 17 -131 14v88q35 45 139 178q-180 0 -226 -2v103h382v-89q-38 -48 -152 -190q194 -29 194 -235v-1q0 -112 -66 -176q-65 -64 -179 -65h-6 q-77 3 -130 34z" />
<glyph unicode="4" horiz-adv-x="522" d="M271 207h-255v56v33q28 47 114 189q146 240 162 266q30 -4 90 -13q5 -4 21 -15v-414h102v-102h-102v-204h-132v204zM271 309v187q-48 -79 -65 -108q-16 -26 -48 -79h113z" />
<glyph unicode="5" horiz-adv-x="522" d="M100 21q-59 34 -98 105q28 14 71 36q24 14 35 19q27 -52 60 -74t87 -22q45 1 72 44q27 42 27 115q0 83 -26 116q-25 34 -87 34q-19 1 -44 -5q-28 -9 -67 -13h-64q5 144 10 339q1 8 1 23h369q-6 -36 -10 -72q-1 -10 -4 -29h-229q-1 -37 -4 -149q4 0 6 1q21 4 56 4 q64 0 106 -20q63 -29 93 -85q30 -57 30 -145q0 -76 -30 -134t-85 -90q-54 -31 -125 -31h-2q-88 0 -148 33z" />
<glyph unicode="6" horiz-adv-x="554" d="M133 25q-53 38 -77 119q-25 80 -25 211q0 86 20 166q19 81 51 130q34 49 84 75q50 25 111 25q62 -1 111 -21q48 -20 75 -56q-24 -27 -73 -81q-32 36 -52 48q-19 12 -47 12q-11 0 -18 -1q-45 -4 -75 -48q-31 -44 -41 -119q45 28 109 28q109 0 169 -68t60 -192v-4 q0 -121 -63 -191t-176 -70q-89 0 -143 37zM354 126q24 38 24 124v3q0 165 -92 165q-54 0 -84 -39q-29 -39 -29 -111q0 -84 27 -132q28 -48 77 -48q53 0 77 38z" />
<glyph unicode="7" horiz-adv-x="522" d="M125 256q17 54 45 99t52 75t70 83q33 38 50 66q17 27 20 58h-346v63v38h489v-6q0 -83 -25 -142q-21 -46 -55 -94q-35 -47 -94 -115q-43 -47 -76 -134q-36 -100 -35 -244h-132q4 151 37 253z" />
<glyph unicode="8" horiz-adv-x="523" d="M512 220q0 -69 -31 -120t-87 -79q-55 -28 -128 -28q-116 0 -180 60q-65 61 -65 169q0 63 26 114t67 73q-57 54 -57 152q0 56 27 99q26 43 73 67q48 24 110 24q61 0 109 -24q47 -24 73 -67q27 -43 27 -99q0 -50 -16 -89q-15 -40 -44 -65q35 -18 65 -61q31 -44 31 -126z M202 635q-19 -21 -19 -75q0 -57 20 -82q19 -25 63 -25t63 25t19 82q0 49 -20 73q-21 24 -62 24q-45 0 -64 -22zM345 121q30 38 30 102q0 63 -27 96q-28 32 -82 32q-108 0 -108 -128q0 -65 29 -102t79 -37t79 37z" />
<glyph unicode="9" horiz-adv-x="543" d="M145 11q-49 20 -76 56q24 27 73 81q32 -36 52 -48q19 -12 47 -12q11 0 18 1q47 4 78 49q32 44 42 120q-45 -30 -113 -30q-109 0 -170 68q-60 69 -60 192q0 124 64 194q63 71 176 71q89 0 142 -37q54 -38 78 -119q25 -80 25 -211q0 -85 -20 -166q-19 -81 -51 -130 q-33 -48 -83 -74q-50 -25 -112 -25q-61 0 -110 20zM349 362q30 39 30 111q0 83 -28 131q-28 49 -76 49q-53 0 -77 -38t-24 -124v-3q0 -84 23 -124q23 -41 69 -41q54 0 83 39z" />
<glyph unicode=":" horiz-adv-x="177" d="M131 354q-10 -10 -24 -15q-14 -6 -28 -6t-28 6q-14 5 -24 15t-16 24t-6 28q0 15 6 29t16 23q10 10 24 16t28 6t28 -6t24 -16q10 -9 16 -23q5 -14 5 -29q0 -14 -5 -28q-6 -14 -16 -24zM132 22q-10 -10 -24 -16t-28 -6t-28 6t-24 16t-16 24t-6 28t6 28t16 24t24 15 q14 6 28 6t28 -6q14 -5 24 -15t16 -24t6 -28t-6 -28t-16 -24z" />
<glyph unicode=";" horiz-adv-x="176" d="M79 -114q37 24 63 67q26 44 26 82q0 36 -21 59q-20 23 -56 23t-59 -21q-23 -20 -23 -56q0 -46 44 -65q-17 -47 -68 -60v-9v-49q54 3 94 29zM123 349q-10 -10 -24 -16q-14 -5 -28 -5t-28 5q-14 6 -24 16t-16 24t-6 28t6 28t16 24t24 16t28 6t28 -6t24 -16t16 -24t6 -28 t-6 -28t-16 -24z" />
<glyph unicode="&#x3c;" horiz-adv-x="410" d="M405 -15q-62 73 -249 292q62 75 249 302h-139q-65 -75 -259 -302q62 -73 249 -292h149z" />
<glyph unicode="=" horiz-adv-x="467" d="M430 303v102h-409v-26v-76h409zM430 139v102h-409v-26v-76h409z" />
<glyph unicode="&#x3e;" horiz-adv-x="409" d="M144 -15q62 73 249 292q-65 75 -259 302h-139q62 -75 249 -302q-62 -73 -249 -292h149z" />
<glyph unicode="?" horiz-adv-x="470" d="M274 221v61q0 26 10 46q11 21 36 42q10 6 13 9q6 3 16 11l-1 -1q6 4 14 10t18 13q42 31 61 65q18 34 18 81q0 45 -25 88q-25 40 -77 64q-51 23 -113 23q-72 0 -133 -31q-61 -30 -105 -88l93 -72q32 43 66 63q33 20 73 20t62 -19q21 -19 21 -54q0 -22 -9 -38 q-10 -16 -34 -33h1q-7 -4 -11 -7q-3 -2 -4 -3q-3 -2 -16 -11q-17 -11 -30 -21q-40 -30 -59 -67q-18 -36 -18 -85v-66h133zM267 6q24 22 24 53v1q0 32 -23 54t-56 22h-1q-14 0 -31 -6q-17 -5 -29 -16q-12 -12 -16 -27q-5 -18 -5 -27v-1q0 -30 24 -52q25 -22 57 -22 q33 0 56 21z" />
<glyph unicode="@" horiz-adv-x="837" d="M255 -81q-85 33 -145 92q-56 56 -85 126q-30 69 -30 144q0 194 124 321q55 55 131 85q75 30 157 30q61 0 122 -18q61 -17 110 -49q49 -33 85 -74q35 -41 52 -85q30 -88 30 -173q0 -122 -50 -189q-49 -68 -177 -68l51 93q19 0 31 43q13 43 13 116q0 64 -17 120 q-16 57 -45 95q-37 49 -86 72q-50 22 -117 22q-107 0 -189 -85q-41 -45 -64 -111q-23 -65 -23 -140q0 -117 80 -208t237 -91q28 0 73 8q52 8 148 43q25 -23 76 -68q-64 -36 -154 -60q-91 -25 -159 -25q-93 0 -179 34zM215 302q0 113 30 177t109 64q71 0 117 -57v26 q28 -4 113 -15v-313q0 -30 46 -30l-51 -93q-82 0 -109 59q-45 -58 -116 -58q-79 0 -109 64q-30 63 -30 176zM471 176v255q-30 19 -49 27q-20 8 -36 8q-33 0 -46 -33q-11 -30 -11 -109v-22q4 -97 13 -131q6 -18 16 -25t28 -7q15 0 35 8q19 8 50 29z" />
<glyph unicode="A" horiz-adv-x="676" d="M616 56q5 -13 19 -53h-140q-1 8 -4 17t-5 19q-6 18 -12 40l-39 129h-199l-32 -128q-5 -19 -18 -77h-139q7 22 26 88q68 232 188 649h154q51 -167 93 -328q44 -161 96 -318q2 -6 6 -19zM346 298q16 0 65 1q-18 69 -73 277q-19 -70 -76 -278h84z" />
<glyph unicode="B" horiz-adv-x="594" d="M558 206v-1q0 -99 -61 -150t-175 -51q-78 0 -234 -1v461v276h222q103 0 153 -53t50 -131q0 -48 -19 -93q-18 -45 -49 -72q62 -17 87 -61q26 -43 26 -124zM225 432h79q40 0 62 31q23 31 23 73q0 43 -23 74q-23 32 -64 33h-77v-211zM402 124q27 25 28 78q-1 69 -28 101 q-28 32 -85 33h-92v-236h95q56 0 82 24z" />
<glyph unicode="C" horiz-adv-x="564" d="M109 89q-72 97 -72 278q0 188 72 286t209 98q64 -1 121 -21q56 -20 98 -58q-1 -1 -11 -20q-11 -19 -37 -69q-4 3 -11 10q-12 12 -23 21q-10 8 -23 16q-20 12 -42 17q-21 6 -52 6q-78 0 -116 -71q-39 -70 -39 -217q0 -133 35 -205q35 -71 99 -71q66 0 117 24q20 9 48 31 q4 -2 12 -7q6 -7 24 -29t31 -41q-41 -36 -101 -55t-130 -19h-1q-136 0 -208 96z" />
<glyph unicode="D" horiz-adv-x="605" d="M88 740h188q103 -1 167 -40t94 -122q30 -82 30 -213q0 -130 -29 -209q-30 -79 -94 -116q-63 -37 -167 -37h-189v461v276zM282 89q75 0 110 67q36 66 36 209q0 152 -37 219q-37 68 -120 68h-47q0 -289 1 -563h57z" />
<glyph unicode="E" horiz-adv-x="605" d="M108 740h449v-87h-157q-39 0 -155 -1v-220h231v-91q-58 0 -231 -1v-246h312v-91h-449v461v276z" />
<glyph unicode="F" horiz-adv-x="533" d="M88 740h439v-92h-307v-226h235v-91h-235v-328h-132v461v276z" />
<glyph unicode="G" horiz-adv-x="615" d="M109 99q-72 97 -72 278q0 188 72 286t209 98q63 -1 120 -21q58 -20 102 -57q-20 -22 -59 -65q-39 26 -56 33q-19 10 -39 14t-48 4q-79 0 -120 -74q-40 -74 -40 -219q0 -133 37 -207q38 -75 103 -75q38 0 60 7q23 7 37 22v258h132v-284q-39 -46 -98 -70t-131 -24h-1 q-136 0 -208 96z" />
<glyph unicode="H" horiz-adv-x="664" d="M88 740h137q0 -77 -1 -308h217v308h137v-737h-137v338q-118 0 -217 -1q0 -174 1 -337h-137v461v276z" />
<glyph unicode="I" horiz-adv-x="353" d="M108 740h137v-737h-137v461v276z" />
<glyph unicode="J" horiz-adv-x="328" d="M14 -139q-18 7 -73 28q4 5 11 32q6 19 19 57q47 -16 78 -16q28 0 41 13q13 14 13 43v722h137v-686q0 -57 -16 -96t-50 -67q-16 -14 -42 -22q-27 -8 -57 -8h-31h-30z" />
<glyph unicode="K" horiz-adv-x="600" d="M447 185q32 -46 128 -182h-146q-39 57 -204 303v4v-307h-137v461v276h137v-321q49 80 198 321h145q-11 -18 -30 -47q-18 -28 -43 -67q-110 -168 -173 -266q42 -58 125 -175z" />
<glyph unicode="L" horiz-adv-x="523" d="M88 740h137v-646h281v-91h-418v461v276z" />
<glyph unicode="M" horiz-adv-x="762" d="M68 52q1 20 4 79q3 62 11 238q8 177 16 371h158q30 -114 120 -457q49 170 129 457h143q11 -184 43 -737h-127q-2 56 -9 225q-3 105 -9 245q-61 -201 -126 -419h-94q-29 103 -118 411q-4 -116 -15 -462h-128q0 12 2 49z" />
<glyph unicode="N" horiz-adv-x="636" d="M77 740h147q56 -127 222 -509v509h122v-737h-154q-54 123 -215 492v-492h-122v430v307z" />
<glyph unicode="O" horiz-adv-x="594" d="M93 89q-67 93 -67 278q0 195 66 288t204 93q140 0 205 -92q65 -93 66 -291q-1 -188 -63 -280q-63 -92 -192 -92h-14q-138 4 -205 96zM372 110q25 27 36 88t12 167q-1 155 -31 225t-94 70q-63 0 -93 -70q-29 -69 -29 -223v-2q0 -146 33 -214q32 -68 100 -68q42 0 66 27z " />
<glyph unicode="P" horiz-adv-x="523" d="M88 725q6 4 25 15q15 0 26 1q20 0 61 1q195 0 262 -59q36 -30 52 -69q17 -40 17 -95q-2 -108 -70 -163q-67 -56 -195 -56h-41v-297h-137v452v270zM256 391q52 0 80 12q29 11 41 38q12 28 12 78q0 51 -13 80q-12 29 -41 41q-29 13 -79 13h-31v-262h31z" />
<glyph unicode="Q" horiz-adv-x="593" d="M579 40v-48v-41h-27q-49 0 -88 16q-40 16 -78 41q-35 -15 -95 -15h-1q-135 5 -200 97q-64 92 -64 277q0 194 64 287q65 94 201 94h13q130 0 191 -92q61 -93 61 -291q0 -151 -30 -220q-22 -52 -55 -84q41 -20 108 -21zM409 365q0 106 -12 170t-38 93t-68 29t-68 -29 t-38 -93t-12 -170q0 -103 13 -163q12 -60 40 -88t76 -31q-23 26 -39 48q-15 22 -17 33h30h82h21v-31q14 14 22 68q8 51 8 149v15z" />
<glyph unicode="R" horiz-adv-x="584" d="M542 3h-149q-2 8 -7 33q-25 120 -62 199t-71 89q-19 6 -29 6q0 -184 1 -327h-137v461v276h179q129 -1 197 -54q67 -54 67 -157q0 -133 -134 -178q31 -28 54 -77q23 -48 49 -139q10 -35 19 -63h1q6 -17 22 -69zM360 445q29 29 29 84q0 124 -113 124h-51q0 -135 -1 -237h52 q55 0 84 29z" />
<glyph unicode="S" horiz-adv-x="553" d="M494 295q15 -39 16 -84q0 -102 -65 -160q-66 -58 -181 -59q-73 1 -131 22t-94 59q22 27 64 82q34 -32 74 -49t78 -17q58 0 96 35q16 14 25 34q8 21 8 44q-1 19 -6 38q-6 20 -14 29q-32 38 -142 77q-93 33 -132 78t-39 120q0 91 58 144q57 52 157 52q63 0 118 -20 q55 -21 89 -57q-22 -25 -67 -74q-31 31 -61 45q-31 14 -69 14q-44 0 -71 -28q-27 -29 -27 -76q0 -28 14 -45t34 -27q20 -9 76 -31q62 -24 97 -41q34 -18 55 -39q26 -27 40 -66z" />
<glyph unicode="T" horiz-adv-x="507" d="M180 648h-174v54v38h495v-92h-184v-645h-137v645z" />
<glyph unicode="U" horiz-adv-x="624" d="M142 57q-60 64 -60 186q0 274 1 497h137v-517q-1 -139 98 -139q96 0 97 139v517h137v-497q0 -124 -59 -187t-175 -63q-115 0 -176 64z" />
<glyph unicode="V" horiz-adv-x="616" d="M31 740h149q9 -35 83 -310q18 -68 55 -205l24 92q28 106 113 423h132q-14 -50 -56 -199q-38 -135 -151 -538h-134q-54 184 -215 737z" />
<glyph unicode="W" horiz-adv-x="820" d="M110 344q-33 150 -88 390h138q19 -88 97 -482q33 146 100 437h126q21 -107 85 -428q12 55 49 221q14 64 57 258h128q-43 -184 -172 -737h-129q-23 121 -84 428q-33 -143 -98 -428h-131q-19 85 -78 341z" />
<glyph unicode="X" horiz-adv-x="552" d="M71 125q35 61 138 246q-45 92 -181 369h155q26 -60 105 -240q32 60 129 240h140q-45 -77 -204 -359q61 -126 182 -378h-155q-25 60 -81 186q-8 19 -25 57q-32 -61 -128 -243h-144q17 31 69 122z" />
<glyph unicode="Y" horiz-adv-x="554" d="M205 273q-50 117 -201 467h149q31 -81 124 -325q33 81 134 325h123q-16 -40 -66 -161q-31 -76 -126 -306v-270h-136q0 68 -1 270z" />
<glyph unicode="Z" horiz-adv-x="533" d="M16 25v51q84 143 338 572h-318v92h471v-78q-83 -142 -334 -568h344v-91h-477q-6 4 -25 17q0 1 1 5z" />
<glyph unicode="[" horiz-adv-x="330" d="M42 869h262v-109h-123v-768h123v-108h-262v616v369z" />
<glyph unicode="\" horiz-adv-x="356" d="M2 802h132q53 -200 213 -799h-132q-53 200 -213 799z" />
<glyph unicode="]" horiz-adv-x="330" d="M26 -8h123v768h-123v27v82h262v-985h-262v108z" />
<glyph unicode="^" horiz-adv-x="553" d="M153 525q15 24 122 215q41 -72 124 -215h144q-53 87 -212 350h-110q-53 -87 -211 -350h143z" />
<glyph unicode="_" horiz-adv-x="532" d="M543 -51h-139h-414v-26v-77h553v103z" />
<glyph unicode="`" horiz-adv-x="307" d="M0 809q49 -41 195 -164q25 5 102 21q-31 35 -123 143h-174z" />
<glyph unicode="a" horiz-adv-x="532" d="M466 10q-30 -5 -118 -20q-4 16 -15 66q-51 -61 -123 -61q-78 0 -121 46t-43 133q0 92 71 137q72 44 211 49v19v17q-1 37 -5 55q-5 18 -16 24q-5 4 -12 6q-8 2 -19 2q-41 0 -79 -9q-39 -10 -110 -47q-10 24 -31 72q100 79 229 79h7q86 0 127 -45q40 -45 40 -140 q1 -127 2 -179v-94q0 -69 5 -110zM328 273q-83 -3 -121 -26q-38 -24 -38 -73q0 -41 18 -66q18 -24 43 -24q52 0 98 46v143z" />
<glyph unicode="b" d="M77 51v462v275q33 6 132 23q1 -77 1 -309q51 66 133 66q92 0 128 -74q36 -73 35 -208v-3q0 -140 -38 -216t-151 -76h-5q-130 0 -235 60zM374 283q0 117 -12 158q-13 40 -55 40q-18 0 -40 -9t-57 -32q-2 -123 -5 -368q36 -5 54 -5q17 0 48 5q35 6 51 40q16 35 16 171z" />
<glyph unicode="c" horiz-adv-x="471" d="M97 68q-61 75 -61 217q0 144 60 217q59 74 175 74q50 -1 95 -19q44 -18 68 -48q0 -3 -20 -27q-12 -16 -36 -47q-36 29 -53 37q-18 7 -54 7q-50 0 -76 -48q-27 -48 -27 -141q0 -96 28 -151q27 -55 74 -55q40 0 70 16t62 54q19 -26 56 -78q-32 -36 -83 -60 q-52 -23 -100 -23q-116 0 -178 75z" />
<glyph unicode="d" d="M62 285q0 140 36 214q35 74 127 74q82 0 133 -66q1 94 1 281q33 7 132 26v-713q1 -34 11 -86q-40 -7 -121 -21q-8 24 -23 67q-51 -66 -133 -66q-92 0 -128 74q-35 73 -35 209v7zM359 126v318q-34 22 -56 31q-23 10 -42 10q-38 0 -52 -38q-15 -37 -15 -162q0 -122 16 -165 q8 -20 19 -28t32 -8q19 0 41 9t57 33z" />
<glyph unicode="e" horiz-adv-x="522" d="M432 507q53 -69 54 -217v-22v-17h-30h-287q2 -86 25 -127q23 -40 72 -40q39 0 76 9t88 40q15 -27 24 -42q9 -16 17 -30q-41 -30 -92 -49t-108 -19q-120 0 -177 71q-58 72 -58 220q0 147 57 220q56 72 173 72q114 0 166 -69zM359 335q-2 78 -24 113q-23 36 -69 36 q-48 0 -73 -38q-24 -37 -24 -106v-5h190z" />
<glyph unicode="f" horiz-adv-x="399" d="M128 478h-92v58v34h92v51q0 179 163 180q49 0 85 -21q35 -20 44 -52q-21 -25 -63 -76q-5 9 -19 34q-15 26 -41 26q-20 0 -29 -19t-8 -62q1 -21 1 -63h123q-3 -22 -14 -90h-110v-475h-132v475z" />
<glyph unicode="g" d="M496 -18q0 -90 -49 -140q-50 -49 -140 -49q-67 0 -123 18q-57 18 -108 57q14 25 22 39t15 26q46 -25 82 -35q35 -11 97 -11q39 0 56 22q16 22 16 73v40v39q-52 -66 -134 -66q-92 0 -128 74q-35 74 -36 215q0 140 36 215q36 74 128 74q82 0 134 -66q7 23 22 69 q31 -6 121 -23q-10 -31 -11 -83v-183v-305zM363 443q-34 22 -56 31q-23 10 -42 10q-37 0 -52 -38t-15 -162q2 -125 14 -164q13 -37 51 -37h2q19 0 42 10t56 32v172v146z" />
<glyph unicode="h" horiz-adv-x="558" d="M363 232v76t1 76q-2 72 -17 82q-14 10 -30 10q-22 0 -49 -11q-27 -10 -59 -30q0 -242 -1 -435h-131v169v307v307q42 5 128 16v-297q41 36 79 51q39 15 85 15q61 0 92 -44t31 -140v-379q-33 -5 -129 -20v133v114z" />
<glyph unicode="i" horiz-adv-x="317" d="M113 667q-17 6 -27 16q-13 14 -18 26q-6 12 -6 28v1q0 15 6 27q5 12 18 25q10 10 27 16t34 6t34 -6t27 -16q24 -25 25 -51v-2q0 -13 -5 -26q-6 -28 -46 -43q-6 -3 -16 -5t-19 -2h-1q-16 0 -33 6zM92 471q0 10 -36 10v22v65q64 2 101 3t68 2v-66q0 -126 -1 -504h-132v468z " />
<glyph unicode="j" horiz-adv-x="317" d="M125 668q-18 8 -26 19q-22 21 -22 50v1q0 26 22 48q8 11 26 18q18 8 37 8t38 -8q18 -7 26 -18q22 -22 22 -48v-1q0 -13 -5 -26q-6 -28 -45 -43q-14 -7 -36 -7h-1q-18 0 -36 7zM39 -197q-9 2 -37 9q-1 5 -4 21q-7 38 -11 67h64q23 0 31 4q7 3 14 19l-1 -1q5 12 9 41 q3 28 3 65v536h132v-546q0 -112 -35 -164q-35 -51 -110 -51h-3q-6 0 -18 1q-3 0 -13 -1h-21z" />
<glyph unicode="k" horiz-adv-x="532" d="M527 36q-3 -9 -4 -14q-2 -6 -5 -12q-43 -4 -129 -13q-56 49 -96 104t-84 114v-212h-132v775q33 7 132 26v-222v-188q8 11 24 32q10 13 39 52q40 53 64 86h141q-48 -65 -195 -260q45 -59 58 -77q13 -17 83 -113q20 -24 46 -51q27 -27 58 -27z" />
<glyph unicode="l" horiz-adv-x="307" d="M106 29q-29 37 -29 122v627q33 7 132 29v-333v-282q0 -47 4 -74q4 -28 11 -29q13 -2 33 0q19 3 50 13q-5 -30 -17 -91q-20 -10 -38 -14q-19 -4 -48 -4q-69 0 -98 36z" />
<glyph unicode="m" horiz-adv-x="808" d="M727 435v-430q-32 -5 -129 -20v133v114q0 77 1 152q-2 75 -10 84q-8 8 -21 8q-20 0 -44 -9q-25 -10 -59 -32v-59v-376h-127v384q0 59 -9 76q-8 16 -29 16q-19 0 -39 -10q-19 -10 -52 -31v-435h-132v476q0 26 -10 67q40 9 122 29q4 -18 16 -70q56 66 122 66q44 0 72 -12 q29 -12 45 -38l12 -21l5 -11q61 82 138 82q41 0 65 -11q23 -11 43 -41q10 -15 15 -35t5 -46z" />
<glyph unicode="n" d="M363 232v76t1 76q-2 72 -17 82q-14 10 -30 10q-22 0 -49 -11q-27 -10 -59 -30q0 -242 -1 -435h-131v476q0 31 -10 72q40 8 122 24q4 -18 16 -70q41 36 79 51q39 15 85 15q61 0 92 -44t31 -140v-379q-33 -5 -129 -20v133v114z" />
<glyph unicode="o" horiz-adv-x="553" d="M103 63q-56 71 -56 221q0 147 56 220q57 72 174 72t173 -72q57 -72 57 -220q0 -104 -23 -168q-23 -63 -73 -93t-132 -30q-120 0 -176 70zM279 85q37 0 57 18q21 18 29 60q9 43 10 121v2q0 105 -24 152q-23 46 -74 46q-52 0 -75 -46q-23 -47 -23 -154q0 -78 9 -120 q9 -43 30 -61q22 -18 60 -18h1z" />
<glyph unicode="p" d="M506 288q0 -139 -36 -214q-35 -74 -127 -74q-82 0 -133 66q-1 -93 -1 -281q-33 -6 -132 -26v702q0 51 -10 97q41 9 122 26l16 -72q51 67 138 66q92 0 128 -74q35 -72 35 -209v-7zM209 447v-318q34 -22 56 -31q23 -10 42 -10q38 0 52 38q15 38 15 162q0 122 -16 165 q-8 20 -19 28t-32 8q-18 0 -40 -9q-23 -9 -58 -33z" />
<glyph unicode="q" d="M497 514v-737q-34 -6 -133 -23v309q-52 -66 -134 -66q-92 0 -128 74q-35 74 -35 209v2q0 140 38 216q39 76 151 76h5q130 0 236 -60zM199 282q0 -117 13 -157q12 -41 54 -41q18 0 40 9q23 9 58 32q1 123 5 369q-36 5 -54 5t-49 -5q-35 -6 -51 -41q-16 -34 -16 -171z" />
<glyph unicode="r" horiz-adv-x="419" d="M77 407q0 43 -7 79q-7 37 -20 59q42 8 124 23q6 -15 26 -61q51 66 117 66q27 0 47 -5t46 -15q-19 -31 -57 -92q-82 51 -144 -28v-430h-132v404z" />
<glyph unicode="s" horiz-adv-x="460" d="M120 10q-47 17 -90 54l12 21q9 16 34 63q44 -35 78 -50q34 -14 71 -14q43 0 60 17t17 60q0 27 -27 49q-28 22 -87 41q-141 44 -141 164q0 72 48 117q47 44 125 44q110 0 192 -76q-2 -2 -6 -7q-2 -2 -18 -19q-16 -18 -42 -50q-34 32 -60 46q-27 14 -56 14q-34 0 -48 -15 t-14 -53q0 -24 26 -44q25 -20 79 -37h1q80 -28 115 -70t35 -109q0 -78 -51 -120q-51 -43 -143 -43q-62 0 -110 17z" />
<glyph unicode="t" horiz-adv-x="399" d="M143 36q-36 44 -36 135v307q-54 0 -92 2v55v35h92q0 42 1 167q33 -9 131 -35v-72v-60h133v-92h-133v-286q0 -29 3 -69q3 -41 29 -41q10 0 40 7q29 6 58 13l-18 -87q-23 -11 -46 -17q-24 -5 -49 -5q-77 0 -113 43z" />
<glyph unicode="u" horiz-adv-x="552" d="M200 332v-77t-1 -75q2 -73 17 -83q14 -9 30 -9q22 0 46 7q25 8 57 28q-2 232 -1 425q45 10 133 31v-497q0 -41 11 -72l-123 -24q-4 18 -16 70q-41 -36 -79 -51t-85 -15q-61 0 -89 47q-28 46 -28 142v246v133q33 5 133 21q0 -83 -2 -134q-3 -52 -3 -113z" />
<glyph unicode="v" horiz-adv-x="492" d="M7 555q32 5 126 18q28 -106 113 -425q25 104 101 416h79h54q-61 -187 -184 -561h-101z" />
<glyph unicode="w" horiz-adv-x="696" d="M10 553q31 4 124 17q19 -95 76 -381q20 94 79 375h126q17 -95 69 -381q12 61 48 243q8 34 33 136q31 3 124 11q-38 -143 -152 -570h-115q-18 100 -74 401q-20 -100 -82 -401h-114q-35 137 -142 550z" />
<glyph unicode="x" horiz-adv-x="563" d="M398 15q-17 27 -69 107q-21 35 -48 75q-34 -51 -126 -194h-145q9 16 199 291q-59 86 -178 259q33 5 133 19q33 -54 118 -183q41 58 121 175h102q10 0 38 -1q-28 -40 -83 -120q-34 -50 -102 -149q48 -72 192 -287l-136 -16z" />
<glyph unicode="y" horiz-adv-x="532" d="M83 -186q-4 13 -16 51q-2 7 -10 29q11 1 29 1h28q22 0 36 17q15 17 31 55q1 3 3 8t5 13q4 10 11 30q-93 292 -173 537q5 1 14 2q40 7 111 16v0l101 -337q3 -9 8 -26q27 88 106 354h133q-52 -160 -209 -640q-25 -61 -60 -91t-83 -30h-63q0 3 -2 11z" />
<glyph unicode="z" horiz-adv-x="491" d="M46 82q64 99 255 396h-232q0 1 -4 27q-7 33 -11 65h379v-99q-58 -94 -234 -377h230q4 -8 8 -40l9 -51h-400v20v59z" />
<glyph unicode="{" horiz-adv-x="330" d="M244 -48q-21 4 -29 16q-9 12 -9 35v245q0 44 -12 68q-13 25 -44 41q30 17 43 43t13 69v245q0 23 9 34q8 12 28 16q21 5 61 4v103h-16q-108 0 -158 -36q-53 -39 -53 -132v-227q0 -38 -11 -51q-10 -14 -39 -14q-13 0 -21 1v-16v-94q7 1 20 1q30 0 40 -13q11 -13 11 -49 v-228q0 -92 53 -131q50 -36 158 -36h16v102q-39 -1 -60 4z" />
<glyph unicode="|" horiz-adv-x="413" d="M269 -119v960h-125v-120v-840h125z" />
<glyph unicode="}" horiz-adv-x="330" d="M199 -118q53 38 53 131v228q0 38 10 50t41 12q7 0 21 -1v110q-7 -1 -20 -1q-30 0 -41 14q-11 13 -11 51v227q0 56 -19 95v1q-41 72 -191 72h-16v-26v-77q40 1 60 -3t28 -16q9 -11 9 -35v-245q0 -44 13 -69q13 -26 44 -43q-32 -16 -44 -41q-13 -25 -13 -68v-245 q0 -23 -9 -35q-8 -12 -29 -16q-20 -5 -59 -4v-102h16q109 0 157 36z" />
<glyph unicode="~" horiz-adv-x="500" d="M421 270q42 29 67 84q-29 16 -88 49q-17 -31 -32 -44q-16 -13 -35 -13q-10 0 -32 14q-42 28 -65 38q-24 10 -60 10q-53 0 -95 -31t-69 -89q30 -16 90 -47q17 33 34 48q16 15 34 15q4 0 11 -3q6 -3 18 -10q36 -26 63 -38t65 -12q53 0 94 29z" />
<glyph unicode="&#xa2;" horiz-adv-x="489" d="M230 -2q-94 20 -146 94q-51 75 -51 191q0 118 52 197q53 78 146 98v155h131v-155q71 -17 125 -65q-22 -30 -67 -89q-38 30 -63 42q-26 11 -59 11q-54 0 -84 -50q-29 -49 -29 -142q0 -184 113 -184q31 0 56 11q25 12 68 44q6 -9 18 -26t47 -67q-58 -49 -125 -65v-153h-132 v153z" />
<glyph unicode="&#xa3;" horiz-adv-x="538" d="M16 102q37 12 54 24t23 34q7 23 7 68v105h-68v91h68v99q0 61 27 107q27 47 76 72q50 26 115 26q67 0 121 -26t91 -76q-14 -11 -42 -32q-38 -27 -53 -41q-30 40 -53 54q-22 14 -59 14q-80 0 -80 -97v-100h213v-91h-213v-106q0 -42 -8 -69t-28 -46h303q-4 -27 -15 -109 h-479v35v64z" />
<glyph unicode="&#xa5;" horiz-adv-x="549" d="M201 139h-142v93h142v62h-142v93h107q-31 53 -124 210q-62 105 -72 121h158q38 -67 150 -270q17 30 66 120q20 38 82 150h153q-41 -69 -164 -277q-8 -14 -32 -54h106v-93h-141v-62h141v-93h-141v-136h-147v136z" />
<glyph unicode="&#xa8;" horiz-adv-x="394" d="M30 694q-24 21 -24 52t25 52q24 21 59 21t59 -21t24 -52t-24 -52t-59 -21t-60 21zM245 694q-24 21 -24 52t24 52t59 21t60 -21t25 -52t-25 -52t-60 -21t-59 21z" />
<glyph unicode="&#xa9;" horiz-adv-x="829" d="M753 370q0 89 -43 165q-42 76 -118 122h1q-77 50 -179 50q-91 0 -168 -43q-83 -48 -129 -125q-45 -77 -45 -169q0 -96 51 -176q45 -73 123 -116q79 -43 168 -43q138 0 238 93q101 93 101 242zM175 370q0 75 34 134q34 57 87 88q54 32 118 32q67 0 127 -38q52 -34 81 -91 q30 -57 30 -125q0 -67 -30 -123q-33 -61 -88 -95q-55 -33 -120 -33q-119 0 -179 76t-60 175zM562 222q-13 19 -51 76q-29 -24 -49 -33q-19 -9 -42 -9q-35 0 -54 30t-19 85q0 57 19 88t54 31q22 0 40 -10q19 -9 41 -31l60 78q-37 29 -71 41q-33 13 -74 13q-55 0 -94 -24 q-46 -27 -70 -75q-23 -47 -23 -111q0 -96 50 -153q51 -56 138 -56h2q50 -1 80 14q31 16 63 46z" />
<glyph unicode="&#xab;" horiz-adv-x="589" d="M328 51q-46 62 -185 246q46 61 185 246q-28 2 -113 10q-51 -64 -205 -256q51 -64 205 -256q28 3 113 10zM573 51q-46 62 -184 246q46 61 184 246q-28 2 -112 10q-51 -64 -205 -256q51 -64 205 -256q28 3 112 10z" />
<glyph unicode="&#xad;" horiz-adv-x="376" d="M348 231v102h-317v-26v-76h317z" />
<glyph unicode="&#xae;" horiz-adv-x="656" d="M573 369q-34 -62 -97 -99h1q-65 -41 -150 -41q-74 0 -138 35t-99 95q-41 67 -41 146q0 73 34 135t96 102q67 41 148 41q75 0 140 -35q65 -36 100 -97q41 -67 41 -146q0 -74 -35 -136zM511 450v55q0 55 -23 101q-24 46 -65 71q-42 26 -96 26q-63 0 -109 -38h95 q70 0 107 -26q38 -26 38 -75q0 -28 -16 -50q-15 -21 -44 -35q23 -35 68 -106q12 15 21 33q4 7 12 22zM276 309h51q70 0 119 44h-80q-13 23 -54 93v-93h-99v308q-26 -23 -44 -56q-24 -45 -24 -100q0 -54 24 -99q24 -46 65 -71q7 -4 21 -13zM323 536q20 0 28 6q7 6 7 22 q0 15 -7 21q-8 5 -30 5h-9v-54h11z" />
<glyph unicode="&#xb4;" horiz-adv-x="307" d="M133 819q-31 -36 -123 -143q26 -5 103 -21q48 41 194 164h-174z" />
<glyph unicode="&#xb8;" horiz-adv-x="280" d="M225 -66q31 -27 31 -67q0 -46 -32 -72q-32 -25 -91 -25q-76 0 -139 33q16 25 49 75q51 -27 80 -27q12 0 17 4q4 4 4 15t-11 33q-19 -2 -58 -5q-6 -4 -32 -17q3 45 10 134h26h77q-2 -11 -8 -46q-1 -1 -1 -4q48 -4 78 -31z" />
<glyph unicode="&#xbb;" horiz-adv-x="580" d="M188 315q-49 65 -195 261h135q52 -65 206 -261q-51 -63 -206 -251h-136q49 63 196 251zM312 172q7 9 29 38q21 26 83 105q-44 59 -178 237l20 24h97q22 -27 86 -109q113 -143 121 -152q-69 -84 -207 -251h-136q21 27 85 108z" />
<glyph unicode="&#xc4;" horiz-adv-x="574" d="M514 195q17 -48 69 -192h-139q-15 51 -61 204h-198q-13 -49 -51 -198q-3 0 -13 -1q0 1 -53 -5q-26 -3 -79 -8q55 186 220 743h154q63 -212 103 -362q8 -30 24 -91zM359 299q-18 69 -73 276q-39 -139 -65 -230q-3 -10 -7 -21q-3 -12 -6 -25h151zM238 786q-10 -10 -24 -16 t-28 -6t-28 6t-24 16t-16 24q-5 14 -5 28t5 28q6 14 16 24t24 16q14 5 28 5t28 -5q14 -6 24 -16t16 -24t6 -28t-6 -28t-16 -24zM442 786q-10 -10 -24 -16t-28 -6t-28 6t-24 16t-16 24t-6 28t6 28t16 24t24 16q14 5 28 5t28 -5q14 -6 24 -16t16 -24q5 -14 5 -28t-5 -28 q-6 -14 -16 -24z" />
<glyph unicode="&#xd6;" horiz-adv-x="595" d="M100 87q-63 90 -63 277q0 135 26 219q27 84 83 124q57 41 150 41q139 0 202 -90q64 -91 64 -289q0 -192 -61 -284t-189 -92h-14q-135 4 -198 94zM373 110q25 28 36 90t11 169q0 153 -30 222t-95 69q-63 0 -92 -68t-29 -221v-1q0 -148 32 -217q32 -70 100 -70q42 0 67 27z M246 796q-10 -10 -24 -16t-28 -6t-28 6t-24 16t-16 24t-6 28t6 28t16 24t24 16t28 6t28 -6t24 -16t16 -24q5 -14 5 -28t-5 -28q-6 -14 -16 -24zM449 796q-9 -10 -23 -16t-29 -6q-14 0 -28 6t-24 16t-15 24q-6 14 -6 28t6 28q5 14 15 24t24 16t28 6q15 0 29 -6t23 -16 q10 -10 16 -24t6 -28t-6 -28t-16 -24z" />
<glyph unicode="&#xdc;" horiz-adv-x="574" d="M517 669q0 -34 -1 -67q0 -148 1 -187v-171q0 -126 -59 -188q-60 -63 -181 -63q-221 0 -221 254q0 198 1 355v118h132v-497q0 -72 22 -100t76 -28q42 1 62 11q20 9 27 33q7 25 8 77v386q1 10 1 67v51h132v-51zM228 786q-10 -10 -24 -16t-28 -6t-28 6t-24 16t-16 24t-6 28 t6 28t16 24t24 16q14 5 28 5t28 -5q14 -6 24 -16t16 -24t6 -28t-6 -28t-16 -24zM432 786q-10 -10 -24 -16t-28 -6t-28 6q-15 6 -24 16q-10 10 -16 24t-6 28t6 28t16 24q9 10 24 16q14 5 28 5t28 -5q14 -6 24 -16t15 -24q6 -14 6 -28t-6 -28q-5 -14 -15 -24z" />
<glyph unicode="&#xdf;" horiz-adv-x="593" d="M490 367q47 -59 47 -144q0 -102 -58 -161q-59 -59 -155 -59q-53 0 -107 17q3 4 10 32q8 27 22 80q36 -30 70 -30q37 0 62 33q24 33 24 88q-1 74 -48 107t-148 31v-351q-30 -2 -63 -6q-34 -5 -49 -7q-6 -1 -20 -3q1 164 1 378q0 137 -1 147v13v38q0 211 210 211 q82 0 130 -45t48 -123q0 -54 -25 -98q-26 -44 -73 -70q77 -18 123 -78zM333 602q0 46 -14 67t-43 21q-36 0 -51 -32q-16 -32 -16 -109v-87h4q64 0 92 40t28 100z" />
<glyph unicode="&#xe4;" horiz-adv-x="552" d="M471 6q-29 -5 -118 -21q-4 17 -15 67q-51 -62 -122 -62q-78 0 -122 47q-43 46 -43 133q0 92 71 136q72 45 211 50v19v17q-1 37 -5 55t-15 24q-5 3 -13 5t-18 3q-41 0 -80 -10t-110 -47q-10 24 -31 72q100 80 229 80q4 0 8 -1q86 0 126 -45q41 -45 41 -140q0 -127 1 -179 v-94q0 -68 5 -109zM333 269q-83 -3 -121 -27q-38 -23 -38 -72q0 -41 18 -66t44 -25q51 0 97 46v144zM205 668q-10 -10 -24 -16t-28 -6t-28 6t-24 16t-16 24t-6 28t6 28t16 24t24 16t28 6t28 -6t24 -16t16 -24t6 -28t-6 -28t-16 -24zM409 668q-10 -10 -24 -16t-29 -6 q-14 0 -28 6t-24 16t-15 24q-6 14 -6 28t6 28q5 14 15 24t24 16t28 6q15 0 29 -6t24 -16q9 -10 15 -24t6 -28t-6 -28t-15 -24z" />
<glyph unicode="&#xf6;" horiz-adv-x="583" d="M117 66q-61 73 -61 213q0 145 60 221q59 75 175 75q118 0 179 -75q61 -74 61 -219v-2q0 -139 -60 -213q-60 -73 -175 -73q-118 0 -179 73zM371 135q28 51 28 149q0 96 -27 145q-28 49 -81 49q-49 0 -76 -50q-27 -51 -27 -144q0 -96 27 -148t76 -52q53 0 80 51zM249 683 q-10 -10 -24 -15q-14 -6 -28 -6q-15 0 -29 6q-14 5 -24 15t-15 24q-6 14 -6 28t6 28q5 14 15 24t24 16t29 6q14 0 28 -6t24 -16t15 -24q6 -14 6 -28t-6 -28q-5 -14 -15 -24zM452 683q-10 -10 -24 -15q-14 -6 -28 -6t-28 6q-14 5 -24 15t-16 24t-6 28t6 28t16 24t24 16t28 6 t28 -6t24 -16t16 -24t6 -28t-6 -28t-16 -24z" />
<glyph unicode="&#xfc;" horiz-adv-x="574" d="M211 332q0 -39 -1 -77v-75q2 -73 16 -83q14 -9 31 -9q21 0 46 7q24 8 57 28q-3 232 -2 425q45 10 134 31v-497q0 -41 10 -72q-41 -8 -122 -24q-4 18 -16 70q-41 -36 -80 -51q-38 -15 -84 -15q-62 0 -90 47q-28 46 -28 142v246v133q33 5 133 21q0 -83 -2 -134 q-2 -52 -2 -113zM238 694q-10 -10 -24 -16t-28 -6t-28 6t-24 16q-10 9 -16 23q-5 14 -5 29q0 14 5 28q6 14 16 24t24 15q14 6 28 6t28 -6q14 -5 24 -15t16 -24t6 -28q0 -15 -6 -29t-16 -23zM452 694q-10 -10 -24 -16t-28 -6t-28 6t-24 16q-10 9 -16 23t-6 29q0 14 6 28 t16 24t24 15q14 6 28 6t28 -6q14 -5 24 -15t16 -24t6 -28q0 -15 -6 -29t-16 -23z" />
<glyph unicode="&#x2000;" horiz-adv-x="461" />
<glyph unicode="&#x2001;" horiz-adv-x="922" />
<glyph unicode="&#x2002;" horiz-adv-x="461" />
<glyph unicode="&#x2003;" horiz-adv-x="922" />
<glyph unicode="&#x2004;" horiz-adv-x="307" />
<glyph unicode="&#x2005;" horiz-adv-x="230" />
<glyph unicode="&#x2006;" horiz-adv-x="153" />
<glyph unicode="&#x2007;" horiz-adv-x="153" />
<glyph unicode="&#x2008;" horiz-adv-x="115" />
<glyph unicode="&#x2009;" horiz-adv-x="184" />
<glyph unicode="&#x200a;" horiz-adv-x="51" />
<glyph unicode="&#x2010;" horiz-adv-x="376" d="M348 231v102h-317v-26v-76h317z" />
<glyph unicode="&#x2011;" horiz-adv-x="376" d="M348 231v102h-317v-26v-76h317z" />
<glyph unicode="&#x2012;" horiz-adv-x="376" d="M348 231v102h-317v-26v-76h317z" />
<glyph unicode="&#x2013;" horiz-adv-x="532" d="M520 266v109h-507v-14v-95h507z" />
<glyph unicode="&#x2014;" horiz-adv-x="809" d="M796 266v109h-783v-14v-95h783z" />
<glyph unicode="&#x2018;" horiz-adv-x="176" d="M99 559q3 2 12 6q54 20 54 73q0 22 -14 40q-14 17 -35 24q16 46 68 61v58q-55 -3 -96 -29q-40 -26 -63 -72q-21 -37 -25 -68q-1 -4 -1 -16q0 -41 34 -63q7 -7 19 -10q13 -4 26 -4h10h11z" />
<glyph unicode="&#x2019;" horiz-adv-x="176" d="M85 547q38 24 63 68q26 44 26 81q0 36 -20 59q-21 23 -57 23t-59 -20q-23 -21 -23 -57q0 -46 44 -65q-17 -47 -68 -60v-14v-44q54 3 94 29z" />
<glyph unicode="&#x201a;" horiz-adv-x="267" d="M125 -103q38 24 63 68q26 43 26 81q0 36 -21 59q-20 23 -56 23t-59 -20q-23 -21 -23 -57q0 -46 44 -65q-17 -47 -68 -60v-58q54 3 94 29z" />
<glyph unicode="&#x201c;" horiz-adv-x="374" d="M95 785q-37 -24 -63 -68q-25 -44 -26 -81q0 -36 21 -59q20 -23 56 -23t59 20q23 21 23 57q0 46 -44 65q17 47 68 60v58q-54 -3 -94 -29zM275 780q-38 -24 -64 -68q-25 -44 -25 -81q0 -36 20 -59q21 -23 56 -23q36 0 59 20q23 21 23 57q0 46 -43 65q17 47 68 60v58 q-54 -3 -94 -29z" />
<glyph unicode="&#x201d;" horiz-adv-x="374" d="M280 578q37 24 63 68q25 43 26 81q0 36 -21 59q-20 23 -56 23t-59 -21q-23 -20 -23 -56q0 -46 44 -65q-17 -47 -68 -60v-58q54 3 94 29zM100 583q38 24 64 68q25 43 25 81q0 36 -20 59q-21 23 -56 23q-36 0 -59 -20q-23 -21 -23 -57q0 -46 43 -65q-17 -47 -68 -60v-15 v-43q54 3 94 29z" />
<glyph unicode="&#x201e;" horiz-adv-x="368" d="M70 -13q1 0 1 3q0 -1 -1 -3zM89 -19q-8 0 -20 2q0 -1 -1 -2h21zM273 -124q38 24 64 68q25 44 25 82q0 35 -20 58q-21 24 -57 24q-35 0 -58 -21q-23 -20 -23 -56q0 -46 43 -66q-17 -47 -68 -60v-58q54 3 94 29zM94 -119q38 24 63 68q26 44 26 82q0 36 -20 59 q-21 23 -57 23t-59 -21q-23 -20 -23 -56q0 -46 44 -66q-17 -47 -68 -60v-58q54 3 94 29z" />
<glyph unicode="&#x2022;" horiz-adv-x="372" d="M233 209q32 13 54 35q49 49 49 116q0 32 -12 62q-13 29 -37 53q-22 22 -54 34q-31 13 -64 13q-34 0 -65 -12q-30 -12 -54 -35q-50 -50 -50 -115q0 -66 49 -116q22 -22 54 -35t65 -13t65 13z" />
<glyph unicode="&#x2026;" horiz-adv-x="172" d="M311 -14q2 1 9 5q33 16 44 46q6 17 6 28v1q0 34 -26 58q-24 21 -55 21h-5q-35 -1 -59 -23t-26 -56v-1q0 -31 24 -55q10 -11 26 -18t34 -8h3q6 0 25 2zM532 -14q2 1 9 5q33 16 44 46q6 17 6 28v1q0 31 -25 56l1 -1q-10 11 -28 18q-15 6 -30 6h-4q-35 0 -60 -24 q-25 -23 -25 -55v-1q0 -32 24 -55t60 -26h3q6 0 25 2zM85 -17q4 2 18 7q34 15 46 46q5 20 5 28v1q0 33 -25 56t-60 23t-60 -22q-24 -23 -26 -57v-1q0 -34 25 -57q25 -24 60 -24h1h16z" />
<glyph unicode="&#x202f;" horiz-adv-x="184" />
<glyph unicode="&#x2039;" horiz-adv-x="358" d="M328 51q-46 62 -185 246q46 61 185 246q-28 2 -113 10q-51 -64 -205 -256q51 -64 205 -256q28 3 113 10z" />
<glyph unicode="&#x203a;" horiz-adv-x="358" d="M123 41q51 64 205 256q-52 64 -205 256q-28 -3 -113 -10q46 -62 185 -246q-47 -61 -185 -246q28 -2 113 -10z" />
<glyph unicode="&#x205f;" horiz-adv-x="230" />
<glyph unicode="&#x2122;" horiz-adv-x="453" d="M31 647v35h164q-1 -9 -4 -35h-60v-241h-40q0 60 -1 241h-59zM204 684q14 0 54 1q13 -46 52 -183q13 45 55 182h48q4 -69 15 -276h-38q-1 56 -5 226q-17 -52 -67 -206h-20q-16 52 -62 207q-2 -56 -7 -225q-9 -1 -37 -5q3 70 12 279z" />
<glyph unicode="&#x25fc;" horiz-adv-x="570" d="M0 570h570v-570h-570v570z" />
</font>
</defs>
</svg>
